#TITLE:Addendum;
#SUBTITLE:;
#ARTIST:N.R.G;
#TITLETRANSLIT:Addendum;
#SUBTITLETRANSLIT:;
#ARTISTTRANSLIT:N.R.G;
#CREDIT:;
#BANNER:Addendum-bn.png;
#BACKGROUND:Addendum-bg.png;
#LYRICSPATH:;
#CDTITLE:pm4cd.png;
#MUSIC:Addendum.mp3;
#OFFSET:-0.020;
#SAMPLESTART:151.231;
#SAMPLELENGTH:20.000;
#SELECTABLE:YES;
#BPMS:0.000=132.010;
#STOPS:;
#BGCHANGES:;
// cache tags:
#FIRSTBEAT:4.750;
#LASTBEAT:468.750;
#SONGFILENAME:Songs/Music V.I.P ^_^/Addendum/Addendum.sm;
#HASMUSIC:1;
#HASBANNER:1;
#MUSICLENGTH:217.056;
// end cache tags

//---------------dance-single - ----------------
#NOTES:
     dance-single:
     :
     Hard:
     9:
     0.857,0.837,1.000,0.111,1.000,868.000,373.000,24.000,0.000,42.000:
0000
0000
0000
0000
,
0000
0000
0000
0222
0000
0000
0000
0000
0000
0000
0000
0000
0000
0000
0000
0000
,
0000
0000
0333
1100
0000
0010
0000
0001
0000
0010
0000
1000
0000
0100
0000
0010
,
0000
0001
0000
1010
0000
0010
0000
0101
0000
0001
0000
1010
0000
0100
0000
1001
,
0000
0100
0000
0011
0000
1000
0000
0100
0000
0010
0000
0001
0000
0010
0000
1000
,
0000
0100
0000
0011
0000
0100
0000
0101
0000
0010
0000
1001
0000
0100
0000
1010
,
0000
0100
0000
1011
0000
0100
0000
0010
0000
0001
0000
0010
0000
0100
0000
1000
,
0000
0010
0000
0201
0000
0010
0000
1000
0000
0010
0000
0001
0000
0010
0000
1000
,
0000
0010
0300
1001
0000
0000
0000
0000
0000
0110
0000
0011
0000
0000
0000
0000
,
0000
0000
0000
1001
0000
0100
0000
1010
0000
0100
0000
0001
0000
0010
0000
1000
,
0000
0011
0011
1110
0000
0100
0000
1001
0000
0010
0000
0010
0000
0001
0000
1100
,
0000
0010
0000
0001
0000
0100
0000
1100
0000
0010
0000
0100
0000
0010
0000
1001
,
0000
0010
0000
0100
0000
1000
0000
0011
0000
0100
0000
0010
0000
0001
0000
1100
,
0000
1000
0000
0100
0000
0010
0000
1001
0000
0100
0000
0010
0000
1000
0000
0110
,
0000
0001
0000
1011
0000
0100
0000
0011
0000
0100
0000
0010
0000
1000
0000
0101
,
0000
0010
0000
1000
0000
0100
0000
1001
0000
0100
0000
0010
0000
0001
0000
1100
,
0000
0010
0000
0001
0000
0100
0000
1010
0000
0100
0000
0001
0000
0010
0000
1100
,
0000
0010
0000
1100
0000
0110
0000
0011
0000
1100
0000
0010
0000
0000
0000
0001
,
0000
0000
0000
1110
0000
0000
0000
0001
0000
0110
0000
0000
0000
1010
0000
0100
,
0000
0000
0000
1001
0000
0000
0000
0100
0000
0101
0000
0000
0000
0010
0000
1100
,
0000
0000
0000
1001
0000
0000
0000
0100
0000
1010
0000
0000
0000
0001
0000
1010
,
0000
0000
0000
1100
0000
0000
0000
0010
0000
0101
0000
0000
0000
1000
0000
0011
,
0000
0000
0000
1101
0000
0000
0000
0100
0000
1010
0000
0000
0000
0001
0000
1100
,
0000
0000
0000
0011
0000
0000
0000
1000
0000
0101
0000
0000
0000
0010
0000
1100
,
0000
0000
0000
1001
0000
0100
0000
0010
0000
0101
0000
1000
0000
0100
0000
1010
,
0000
0001
0000
0020
0000
0000
0000
0000
0000
0000
0030
1100
0000
0110
0000
1001
,
0000
1100
1001
0111
0000
0010
0000
1000
0000
0101
0000
0010
0000
0101
0000
1000
,
0000
0010
0000
1001
0000
0100
0000
0010
0000
0011
0000
0100
0000
1010
0000
0100
,
0000
0001
0000
0110
1000
0100
0000
1001
0000
0010
0000
1000
0000
0011
0000
0100
,
0000
0001
0000
1100
0010
0001
0000
0100
0000
0011
0000
0001
0000
1100
0000
0010
,
0100
0000
0000
1101
0000
0100
0000
0010
0000
1001
0000
0100
0000
0011
0000
1000
,
0000
0100
0000
0101
0000
0010
0000
0100
0000
1010
0000
0010
0000
0100
1000
0000
,
0000
0100
0000
1011
0000
0000
0000
0000
0000
0010
0000
0100
0000
0000
0000
0000
,
0000
1100
0000
0110
0000
0011
0000
0110
0000
1010
0000
0011
0000
1001
0000
0110
,
0000
0011
0011
1101
0000
0010
0000
0100
0000
1001
0000
0100
0000
1010
0000
0001
,
0000
0100
0000
0011
0000
1000
0000
0100
0000
1010
0000
0001
0000
0110
0000
0010
,
0001
0000
0000
1110
0000
0100
0000
1000
0000
0110
0000
0100
0000
1001
0000
0010
,
0000
1000
0000
0011
0000
0100
0000
0001
0000
1100
0000
0010
0000
0101
0000
1000
,
0010
0000
0000
1010
0000
0001
0000
1000
0000
0101
0000
0010
0000
1100
0000
0010
,
0000
0001
0000
1100
0000
0010
0000
0100
0000
0011
0000
0010
0000
1100
0000
0010
,
0100
0000
0000
1001
0000
0010
0000
0100
0000
0011
0000
0100
0000
1010
0000
0100
,
0010
0001
0000
1110
0000
0000
0000
0011
0000
1100
0000
0001
0001
1100
0000
1000
,
1000
0011
0000
1011
0000
0100
0000
0010
0000
1001
0000
0100
0000
0110
0000
0001
,
0000
0100
0000
1001
0000
0010
0000
0100
0000
1100
0000
0010
0000
0101
0000
1000
,
0001
0000
0000
1100
0000
0010
0000
1000
0000
0110
0000
0010
0000
0101
0000
0010
,
0000
0001
0000
1010
0000
0100
0000
0001
0000
0110
0000
0100
0000
1001
0000
0010
,
0100
0000
0000
1201
0000
1000
0000
0010
0000
1001
0000
0010
0000
1001
0300
0010
,
0000
0100
0000
1010
0000
0100
0000
0001
0000
0110
0000
1000
0000
0101
0000
0100
,
1000
0000
0000
0110
0000
0001
0000
0100
0000
1010
0000
0100
0000
0001
0000
1100
,
1100
0011
0011
2220
0000
0000
0000
0000
0000
0000
0000
0000
0000
0000
0000
0000
,
0000
0000
3330
1100
0000
0110
0000
1001
0000
0011
0000
1010
1010
0101
0000
0101
,
0101
1010
0000
0111
0000
1000
0000
0010
0000
1100
0000
0001
0000
1010
0000
0100
,
0000
1000
0000
0011
0000
0100
0000
0001
0000
0110
0000
1000
0000
0101
0000
0010
,
1000
0000
0000
1010
0000
0100
0000
0010
0000
0011
0000
0010
0000
0101
0000
1000
,
0000
0100
0000
0011
0000
1000
0000
0100
0000
1010
0000
0100
0000
0011
0000
0001
,
1000
0000
0000
0110
0000
1000
0000
0100
0000
1001
0000
0010
0000
1100
0000
0010
,
0000
0100
0000
0011
0000
0010
0000
0100
0000
1001
0000
0010
0000
0101
0000
1000
,
0010
0000
0000
1100
0000
0001
0000
0100
0000
1010
0000
0100
0000
0011
0000
0100
,
0000
1000
0000
0202
0000
0000
0000
0000
0000
0000
0303
1010
0000
0000
0000
0101
,
0000
1100
1100
0111
0000
1000
0000
0010
0000
0110
0000
0001
0000
1010
0000
1000
,
0000
0100
0000
1001
0000
0010
0000
1000
0000
0011
0000
0100
0000
1010
0000
0001
,
0100
0000
0000
1010
0000
0100
0000
1000
0000
0011
0000
0100
0000
1001
0000
0010
,
0000
0100
0000
1001
0000
0100
0000
0010
0000
0110
0000
0001
0000
1100
0000
0100
,
0001
0000
0000
1010
0000
0100
0000
0001
0000
1100
0000
0010
0000
0101
0000
0010
,
0000
1000
0000
0011
0000
0100
0000
1000
0000
0101
0000
0010
0000
1100
0000
0100
,
0001
0000
0000
1010
0000
0100
0000
0001
0000
0110
0000
0001
0000
1010
0000
0100
,
0000
0001
0000
1100
0000
1100
0000
0101
0000
1010
0000
0001
0000
0010
0000
1001
,
0000
0000
0000
1110
0000
0000
0000
0101
0000
0020
0000
0000
0000
1000
0000
0100
,
0000
0000
0000
1031
0000
0000
0000
0010
0000
0001
0000
0000
0000
0010
0000
1000
,
0000
0000
0000
1001
0000
0000
0000
0001
0000
0110
0000
0000
0000
0100
0000
0011
,
0000
0000
0000
0110
0000
0000
0000
2000
0000
0100
0000
0000
0000
0001
0000
3100
,
0000
0000
0000
0111
0000
0000
0000
0100
0000
0101
0000
0000
0000
0100
0000
0110
,
0000
0000
0000
1001
0000
0000
0000
0100
0000
0012
0000
0000
0000
1000
0000
0010
,
0000
0003
0000
1010
0000
0100
0010
0001
0000
0101
0000
0010
0000
1000
0000
0101
,
0000
0100
0000
0021
0001
0100
0100
1000
1000
0100
0130
0010
0010
0000
0000
1001
,
0000
0100
0000
0111
0000
0001
0000
0100
0000
0001
0000
0110
0000
0010
0000
1000
,
0000
0010
0000
1001
0000
1000
0100
0010
0000
0010
0000
0101
0000
0001
0010
0100
,
0000
1000
0000
0110
0000
0100
0010
0001
0000
0010
0000
1001
0000
0010
0000
0100
,
0000
0001
0000
1100
0000
0010
0100
1000
0000
0101
0000
0010
0000
1001
0000
1000
,
0100
0000
0000
1101
0000
1011
0000
1101
0000
1100
0000
0100
0000
1001
0000
0010
,
0000
0001
0000
0110
0000
1000
0000
0100
0000
0011
0000
0111
0000
1110
0001
0100
,
0010
1100
0000
1011
0000
0000
0000
0000
0000
1011
0000
1101
0000
0000
0000
0000
,
0000
0101
0000
0110
0000
1010
0000
1001
0000
0110
0000
1100
0000
0011
0000
1001
,
0000
1010
1010
1101
0000
1000
0000
0100
0000
0011
0000
0010
0000
1001
0000
0010
,
0000
1000
0000
0101
0000
0010
0000
1000
0000
1001
0000
0010
0000
1100
0000
0001
,
0010
0000
0000
0111
0000
0010
0000
0001
0000
1100
0000
0010
0000
0101
0000
1000
,
0000
0010
0000
0101
0000
0010
0000
1000
0000
0011
0000
0010
0000
1100
0000
1000
,
0001
0000
0000
0110
0000
0100
0000
0010
0000
0110
0000
0001
0000
1010
0000
0010
,
0000
1000
0000
0101
0000
1000
0000
0100
0000
1001
0000
0001
0000
0110
0000
0001
,
1000
0000
0000
0110
0000
0001
0000
0010
0000
1010
0000
0100
0000
1100
0000
1000
,
0100
0010
0000
1011
0000
0000
0000
0101
0000
1010
0000
1000
1000
1100
0000
0001
,
0001
0011
0000
1011
0000
0001
0000
0010
0000
1010
0000
0001
0000
1100
0000
0010
,
0000
0001
0000
1100
0000
0001
0000
0010
0000
1010
0000
0001
0000
1001
0000
0100
,
1000
0000
0000
0110
0000
0001
0000
0010
0000
1010
0000
0100
0000
0011
0000
1000
,
0000
0100
0000
0101
0000
0010
0000
1000
0000
0011
0000
1000
0000
0101
0000
0010
,
0001
0000
0000
1012
0000
1000
0000
0110
0000
1000
0000
0010
0000
1100
0003
0100
,
0000
1000
0000
0110
0000
0001
0000
0010
0000
1001
0000
0100
0000
0011
0000
0010
,
0100
0000
0000
0101
0000
0010
0000
0001
0000
0110
0000
1000
0000
0010
0000
0110
,
0110
1001
1001
2022
0000
0000
0000
0000
0000
0000
0000
0000
0000
0000
0000
0000
,
0000
0000
3033
0101
0000
1010
0000
0110
0000
1100
0000
1001
1001
0110
0000
0110
,
0110
1001
0000
1110
0000
0010
0000
0100
0000
1010
0000
0100
0000
0011
0000
1000
,
0000
0100
0000
0101
0000
0010
0000
0001
0000
1100
0000
0010
0000
1001
0000
0001
,
0010
0000
0000
0110
0000
0100
0000
1000
0000
0101
0000
0010
0000
0110
0000
0001
,
0000
0100
0000
1001
0000
0010
0000
0100
0000
0110
0000
1000
0000
0101
0000
0100
,
0010
0000
0000
0101
0000
0010
0000
0100
0000
1100
0000
0001
0000
0110
0000
1000
,
0000
0100
0000
0011
0000
0001
0000
0010
0000
0101
0000
1000
0000
1001
0000
0100
,
0001
0000
0000
1010
0000
0100
0000
0010
0000
0011
0000
1000
0000
0110
0000
0001
,
0000
1000
0000
2020
0000
0000
0000
0000
0000
0000
3030
0110
0000
0000
0000
0011
,
0000
0101
0101
1011
0000
1000
0000
0100
0000
0011
0000
0001
0000
0110
0000
1000
,
0000
0010
0000
1100
0000
0001
0000
0100
0000
1001
0000
0010
0000
0101
0000
0010
,
1000
0000
0000
0110
0000
0001
0000
0010
0000
1010
0000
0100
0000
0101
0000
0010
,
0000
1000
0000
0011
0000
1000
0000
0001
0000
1100
0000
0010
0000
1001
0000
1000
,
0010
0000
0000
0110
0000
1000
0000
0010
0000
0011
0000
0100
0000
1001
0000
0100
,
0000
1000
0000
0110
0000
0001
0000
0010
0000
1001
0000
0100
0000
0101
0000
0010
,
0001
0000
0000
0110
0000
1000
0000
0001
0000
1100
0000
0001
0000
0101
0000
0100
,
0000
0001
0000
0110
0000
0110
0000
1001
0000
1001
0000
0110
0000
0011
0000
1100
,
1010
0000
0000
0222
0000
0000
0000
0000
0000
0000
0000
0000
0000
0000
0000
0000
,
0000
0000
0000
0333
0000
0000
0000
0000
0000
0000
0000
0000
0000
0000
0000
0000
;
